.
Авторизация | Регистрация

trackerok.com

» » Bellator Fighting Championships: 96 - Prelims [2013 г., MMA, WEB-DL 720p] торрент скачать бесплатно


    Bellator Fighting Championships: 96 - Prelims [2013 г., MMA, WEB-DL 720p] торрент скачать бесплатно

    Дата: 23-06-2016, 07:07 | .torrent скачали: 13

    Bellator Fighting Championships: 96 - Prelims [2013 г., MMA, WEB-DL 720p]Вид спорта: MMA
    Дата/Год выпуска: 2013 г.
    Язык комментариев: английский

    Описание
    It\'s 720p but not the highest bit rate and a very low profile. Still figuring out Bellator\'s new player, please bear with me.
    Justin McNally vs Steven Artoff
    Brandon Girtz vs Derek Campos
    Brandon Halsey vs Joey Yager
    Ryan Martinez vs Richard Hale
    Raphael Butler vs Jeremiah O\'Neal
    Keith Miner vs Damon Jackson
    Complete name : Bellator.FC.96.Prelims.720p.WEB-DL.x264-WINNEBAGO.mp4
    Format : MPEG-4
    Format profile : Base Media/Version 2
    Codec ID : mp42
    File size : 821 MiB
    Duration : 1h 23mn
    Overall bit rate mode : Variable
    Overall bit rate : 1 376 Kbps
    Encoded date : UTC 2013-06-19 23:50:33
    Tagged date : UTC 2013-06-19 23:50:33
    Video
    ID : 1
    Format : MPEG-4 Visual
    Format profile : Simple@L1
    Format settings, BVOP : No
    Format settings, QPel : No
    Format settings, GMC : No warppoints
    Format settings, Matrix : Default (H.263)
    Codec ID : 20
    Duration : 1h 23mn
    Bit rate mode : Constant
    Bit rate : 1 247 Kbps
    Nominal bit rate : 1 163 Kbps
    Width : 1 280 pixels
    Height : 720 pixels
    Display aspect ratio : 16:9
    Frame rate mode : Constant
    Frame rate : 29.970 fps
    Color space : YUV
    Chroma subsampling : 4:2:0
    Bit depth : 8 bits
    Scan type : Progressive
    Compression mode : Lossy
    Bits/(Pixel*Frame) : 0.045
    Stream size : 744 MiB (91%)
    Writing library : Lavc54.92.100
    Tagged date : UTC 2013-06-19 23:51:43
    Audio
    ID : 2
    Format : AAC
    Format/Info : Advanced Audio Codec
    Format profile : LC
    Codec ID : 40
    Duration : 1h 23mn
    Bit rate mode : Variable
    Bit rate : 124 Kbps
    Nominal bit rate : 107 Kbps
    Maximum bit rate : 128 Kbps
    Channel(s) : 2 channels
    Channel positions : Front: L R
    Sampling rate : 44.1 KHz
    Compression mode : Lossy
    Stream size : 74.0 MiB (9%)
    Tagged date : UTC 2013-06-19 23:51:43
    Автор рипа/записи: WINNEBAGO
    Доп. информация: для коллекции
    Качество: Stream
    Формат видео: MP4
    Видео: -
    Аудио: -

    Bellator Fighting Championships: 96 - Prelims [2013 г., MMA, WEB-DL 720p]
    Рейтинг →
     (голосов: 1, оценка 4/5, голосовать можно 1 раз )

    Другие торренты по теме:

  • Bellator Fighting Championships 97: Chandler vs Rickels [31.07.2013, MMA, HDTVRip]
  • Bellator Fighting Championships 85: Chandler vs Hawn [2013, MMA, HDTV 1080i]
  • Bellator Fighting Championships 91 - Main Card [2013 г., MMA, HDTV 720p 60fps]
  • Bellator Fighting Championships 1 [2009 г., MMA, PDTVRip]
  • Bellator Fighting Championships 100 / Бен Сондерс – Даглас Лима / Ben Saunders vs Douglas Lima / + Основные поединки [20.09.2013, Смешанные единоборства, SATRip, Россия 2, XviD, RU]
  • Bellator Fighting Championships 101 / А.Сарнавский- М.Дэвис / А.Sarnavskiyvs М.Davis / + Основная карта [27.09.2013, Смешанные единоборства, SATRip, Россия 2, XviD, RU]
  • Bellator Fighting Championships 102 / Ч.Конго - М.Годбир / C.Kongo vs M.Godbir / Россия 2 / + Основные поединки [04.10.2013, Смешанные единоборства, SATRip, Россия 2, XviD, RU]
  • Bellator Fighting Championships 103 / Михаил Заяц (Россия) против Аарона Роса (США) / Mikhail Zayats vs. Aaron Rosa / + Основные поединки [11.10.2013, Смешанные единоборства, SATRip, Россия 2, XviD, RU]


    • Комментарии (0):

      Информация

      Информация

        Посетители, находящиеся в группе Гости, не могут оставлять комментарии в данной новости.

        ↓ Меню




        ↓ Опрос

        Вы добавили сайт в закладки?
        Да
        Нет


        Популярное